<?xml version="1.0" encoding="UTF-8" standalone="no"?> <svg xmlns="http://www.w3.org/2000/svg" xmlns:xlink="http://www.w3.org/1999/xlink" version="1.1"><metadata></metadata><defs><font id="kinetikaultra"><glyph></glyph><glyph></glyph><glyph unicode="&#13;"></glyph><glyph unicode=" "></glyph><glyph unicode="&#9;"></glyph><glyph unicode=" "></glyph><glyph unicode="!" d="M82 1454h532l-43 -926h-452zM98 223q0 102 72 174t176 72q102 0 174 -72t72 -174t-72 -174t-174 -72q-104 0 -176 72t-72 174z"></glyph><glyph unicode="&quot;" d="M92 1436h494l-109 -592h-379zM627 1436h493l-108 -592h-379z"></glyph><glyph unicode="#" d="M55 250l60 328h151l45 223h-178l57 321h183l49 248h389l-43 -248h115l43 248h389l-39 -248h154l-58 -321h-147l-35 -223h180l-55 -328h-176l-39 -250h-416l45 250h-115l-45 -250h-415l49 250h-148zM672 578h114l39 223h-114z"></glyph><glyph unicode="$" d="M43 176l156 344q98 -68 227.5 -121t251.5 -53q121 0 121 60q0 40 -66 60q-23 7 -141 30q-175 35 -259 74q-227 104 -227 358q0 165 91 276.5t258 157.5v289h442v-277q110 -20 191.5 -55.5t123.5 -69.5l-141 -340q-76 46 -192.5 82.5t-221.5 36.5q-114 0 -114 -57 q0 -32 34.5 -46t120.5 -28q51 -9 79.5 -14.5t80 -18t83 -24t76 -31.5t72 -41.5t59 -53.5t49 -68.5t29 -84.5t11.5 -104q0 -162 -89.5 -276.5t-250.5 -166.5v-280h-442v260q-123 24 -231 73t-181 109z"></glyph><glyph unicode="%" d="M51 1040q0 156 96.5 254.5t249.5 98.5q154 0 251 -99t97 -254q0 -157 -97 -255.5t-251 -98.5t-250 98.5t-96 255.5zM158 0l1020 1370h342l-1016 -1370h-346zM322 1042q0 -50 20 -78t57 -28q35 0 55.5 28.5t20.5 77.5q0 47 -20.5 75t-55.5 28q-36 0 -56.5 -27.5 t-20.5 -75.5zM954 332q0 154 96.5 253t249.5 99q154 0 252.5 -99t98.5 -253q0 -156 -98.5 -255.5t-252.5 -99.5t-250 99t-96 256zM1225 332q0 -49 21.5 -78t56.5 -29q36 0 56.5 28.5t20.5 78.5t-20 77t-57 27q-36 0 -57 -27.5t-21 -76.5z"></glyph><glyph unicode="&amp;" d="M61 373q0 232 234 354q-127 135 -127 287q0 76 31.5 144.5t90.5 121.5t151.5 84t207.5 31q215 0 343 -103t128 -282q0 -66 -18 -121t-53.5 -99t-73 -76.5t-92.5 -68.5l114 -113q27 32 42 68.5t18 56t4 50.5h360q3 -109 -40.5 -219.5t-127.5 -200.5l297 -289h-481l-74 70 q-167 -93 -405 -93q-115 0 -207 22.5t-151 60t-98.5 89.5t-56 108t-16.5 118zM489 383q0 -40 30.5 -63t84.5 -23q55 0 117 27l-160 151q-72 -38 -72 -92zM553 1004q0 -23 17 -48t61 -69q98 57 98 117q0 35 -24 58t-66 23t-64 -25t-22 -56z"></glyph><glyph unicode="'" d="M92 1436h494l-109 -592h-379z"></glyph><glyph unicode="(" d="M61 590q0 43 4 102t21.5 168t46.5 211.5t86.5 220.5t134.5 207h430q-274 -448 -274 -913q0 -476 274 -924h-430q-76 90 -133 208t-86.5 221.5t-47 214t-22 173.5t-4.5 111z"></glyph><glyph unicode=")" d="M18 -338q275 450 275 924q0 463 -275 913h431q77 -89 134.5 -207t86.5 -220.5t46 -212t21 -167.5t4 -102q0 -48 -4 -111t-22 -173.5t-47 -214t-86 -221.5t-133 -208h-431z"></glyph><glyph unicode="*" d="M51 1028l10 16l230 64l-225 61l-15 17l150 262l22 -6l166 -164l-59 227l4 21h303l6 -21l-59 -227l166 166l18 4l154 -262l-15 -15l-225 -63l225 -64l15 -16l-154 -258l-16 4l-168 164l59 -231l-6 -15h-303l-4 15l59 231l-172 -164l-16 -4z"></glyph><glyph unicode="+" d="M68 479v367h280v289h385v-289h279v-367h-279v-289h-385v289h-280z"></glyph><glyph unicode="," d="M57 203q0 109 74 183.5t186 74.5q118 0 196.5 -79.5t78.5 -195.5q0 -266 -447 -624l-86 94q171 193 234 317q-102 0 -169 69.5t-67 160.5z"></glyph><glyph unicode="-" d="M98 414v379h693v-379h-693z"></glyph><glyph unicode="." d="M53 233q0 109 76 185t186 76t185 -76t75 -185t-75 -184.5t-185 -75.5t-186 75.5t-76 184.5z"></glyph><glyph unicode="/" d="M37 -223l668 1743h503l-671 -1743h-500z"></glyph><glyph unicode="0" d="M70 684q0 314 177.5 511.5t459.5 197.5q187 0 332 -89.5t224.5 -251t79.5 -368.5t-79.5 -368t-224.5 -250t-332 -89q-186 0 -331.5 89t-225.5 250t-80 368zM532 686q0 -136 46 -213.5t129 -77.5q82 0 128 77t46 214q0 134 -46.5 211.5t-127.5 77.5q-83 0 -129 -77.5 t-46 -211.5z"></glyph><glyph unicode="1" d="M51 918v389l398 63h294v-1370h-460v944z"></glyph><glyph unicode="2" d="M66 903q-1 218 153 354t402 136q231 0 376.5 -125t145.5 -324q0 -64 -16.5 -123t-41 -103.5t-65.5 -92t-75.5 -79.5t-86.5 -75l-98 -82h389v-391h-1055v338l479 416q3 3 19.5 17t20.5 17.5t17.5 16t17.5 18t14 16.5t13 18.5t8.5 18t7 20.5t1.5 21q0 43 -29 66t-69 23 q-52 0 -87.5 -36t-35.5 -108z"></glyph><glyph unicode="3" d="M37 401l412 91q11 -63 50 -99.5t103 -36.5q61 0 101 36.5t40 92.5q0 51 -39.5 85t-99.5 34q-53 0 -108 -35l-164 246l250 180h-457v375h1008v-342l-242 -176q141 -27 226 -125.5t85 -257.5q0 -222 -162 -358t-440 -136q-238 0 -386.5 107t-176.5 319z"></glyph><glyph unicode="4" d="M45 219v301l492 850h589v-801h162v-350h-162v-219h-450v219h-631zM453 569h223v392z"></glyph><glyph unicode="5" d="M49 369l414 96q41 -115 153 -115q60 0 100 38.5t40 98.5q0 61 -39 99.5t-103 38.5q-44 0 -82 -23.5t-55 -62.5l-362 170l114 661h914v-371h-584l-29 -133q85 43 207 43q215 0 344 -124t129 -322q0 -217 -159.5 -352.5t-432.5 -135.5q-147 0 -263.5 40.5t-198 130.5 t-107.5 223z"></glyph><glyph unicode="6" d="M49 508q0 137 48 250t169 260l287 352h547l-352 -426q16 2 51 2q197 0 327.5 -127t130.5 -319q0 -155 -78 -274.5t-215 -184t-309 -64.5q-174 0 -311 64.5t-216 186t-79 280.5zM516 487q0 -60 37.5 -97.5t97.5 -37.5q57 0 95 38.5t38 96.5q0 56 -37.5 93.5t-95.5 37.5 q-57 0 -96 -38t-39 -93z"></glyph><glyph unicode="7" d="M59 979v391h994v-334l-432 -1036h-510l434 979h-486z"></glyph><glyph unicode="8" d="M66 420q0 101 52 187t154 134q-139 90 -139 254q0 172 151.5 285t391.5 113q242 0 394.5 -113.5t152.5 -286.5q0 -162 -136 -252q101 -49 154 -136t53 -187q0 -193 -167 -317t-449 -124t-447 124t-165 319zM549 453q0 -53 37 -88t92 -35q58 0 94.5 35t36.5 88 q0 54 -37 87t-94 33q-55 0 -92 -33.5t-37 -86.5zM567 944q0 -47 30.5 -76.5t82.5 -29.5q50 0 81.5 29.5t31.5 78.5q0 45 -32.5 76t-82.5 31q-49 0 -80 -30.5t-31 -78.5z"></glyph><glyph unicode="9" d="M43 877q0 145 75.5 263t213.5 185.5t313 67.5q176 0 314 -68t215 -189.5t77 -275.5q0 -100 -40 -199t-86.5 -166t-156.5 -209q-22 -29 -34 -44l-186 -242h-547l336 432h-25q-203 0 -336 125.5t-133 319.5zM504 883q0 -57 37.5 -95t93.5 -38q60 0 98.5 38t38.5 95 q0 60 -37 97.5t-96 37.5t-97 -38t-38 -97z"></glyph><glyph unicode=":" d="M76 233q0 109 76.5 185t185.5 76q110 0 185 -76t75 -185t-75 -184.5t-185 -75.5q-109 0 -185.5 75.5t-76.5 184.5zM76 846q0 109 76.5 184.5t185.5 75.5q110 0 185 -75.5t75 -184.5t-75 -184.5t-185 -75.5q-109 0 -185.5 75.5t-76.5 184.5z"></glyph><glyph unicode=";" d="M72 844q0 108 76 183t184 75q110 0 185 -74.5t75 -183.5q0 -108 -75 -183t-185 -75q-107 0 -183.5 75.5t-76.5 182.5zM80 203q0 109 75 183.5t185 74.5q118 0 196 -79.5t78 -195.5q0 -267 -446 -624l-86 94q168 190 233 317q-102 0 -168.5 69.5t-66.5 160.5z"></glyph><glyph unicode="&lt;" d="M59 459v381l813 336v-435l-383 -92l383 -100v-436z"></glyph><glyph unicode="=" d="M121 215v406h854v-406h-854zM121 709v407h854v-407h-854z"></glyph><glyph unicode="&gt;" d="M109 113v436l383 100l-383 92v435l813 -336v-381z"></glyph><glyph unicode="?" d="M37 1192q29 58 74.5 106t111.5 87.5t159.5 62t205.5 22.5q254 0 407.5 -116.5t153.5 -304.5q0 -61 -20 -114.5t-51.5 -91.5t-70.5 -71.5t-77.5 -60t-70 -50t-51.5 -48t-20 -48.5v-37h-446v64q0 61 24 113.5t60.5 87.5t78.5 67.5t78.5 55.5t60.5 48.5t24 49.5q0 25 -29 46 t-80 21q-107 0 -172 -110zM330 215q0 102 68.5 171t170.5 69t170 -69t68 -171q0 -103 -67.5 -170.5t-170.5 -67.5t-171 67.5t-68 170.5z"></glyph><glyph unicode="@" d="M55 487q0 238 109.5 427.5t304.5 295t440 105.5q174 0 324 -56t254.5 -153t163.5 -231t59 -287q0 -114 -36 -207.5t-98.5 -154t-144 -93.5t-174.5 -33q-174 0 -253 127q-84 -116 -230 -116q-128 0 -210.5 93t-82.5 249q0 87 29.5 163t77.5 127t108.5 80t122.5 29 q101 0 172 -74l4 47h277l-27 -358q-4 -49 20 -70.5t52 -21.5q45 0 73.5 50t28.5 140q0 203 -146 341t-364 138q-116 0 -219.5 -43.5t-178 -119t-118 -182t-43.5 -226.5q0 -105 34 -198t100.5 -167.5t176.5 -118.5t250 -44q100 0 180.5 21.5t174.5 66.5l106 -228 q-71 -56 -205.5 -92.5t-277.5 -36.5q-178 0 -332 59.5t-264.5 165t-174 257.5t-63.5 329zM766 463q0 -42 26 -70t64 -28q46 0 78.5 37t32.5 92q0 39 -24.5 66.5t-63.5 27.5q-48 0 -80.5 -35.5t-32.5 -89.5z"></glyph><glyph unicode="A" d="M-10 0l440 1370h584l430 -1370h-496l-35 162h-383l-38 -162h-502zM623 551h204l-106 436z"></glyph><glyph unicode="B" d="M102 0v1370h744q219 0 331.5 -102.5t112.5 -263.5q0 -93 -40 -160t-113 -101q96 -33 150 -113t54 -204q0 -204 -133.5 -315t-410.5 -111h-695zM567 371h213q44 0 69 24t25 62t-26.5 62t-67.5 24h-213v-172zM567 838h176q46 0 73.5 20t27.5 62q0 37 -25.5 59t-64.5 22 h-187v-163z"></glyph><glyph unicode="C" d="M53 684q0 151 54.5 283t149.5 226t230.5 148t292.5 54q220 0 394 -102.5t251 -274.5l-405 -209q-34 72 -100 113t-148 41q-117 0 -191.5 -78t-74.5 -201q0 -121 75.5 -199.5t192.5 -78.5q86 0 154.5 45t97.5 120l414 -190q-72 -185 -252 -295.5t-410 -110.5 q-155 0 -290 53.5t-230.5 147t-150 225t-54.5 283.5z"></glyph><glyph unicode="D" d="M102 0v1370h590q340 0 526.5 -185.5t186.5 -502.5q0 -316 -182 -499t-516 -183h-605zM571 430h181q77 0 127.5 72t50.5 190q0 113 -50.5 180.5t-127.5 67.5h-181v-510z"></glyph><glyph unicode="E" d="M102 0v1370h1041v-393h-586v-113h569v-356h-569v-115h608v-393h-1063z"></glyph><glyph unicode="F" d="M102 0v1370h1004v-407h-537v-123h484v-394h-484v-446h-467z"></glyph><glyph unicode="G" d="M51 686q0 154 55.5 286t153.5 225t237 145.5t302 52.5q189 0 330.5 -53.5t259.5 -174.5l-353 -303q-89 103 -235 103q-130 0 -204.5 -81t-74.5 -200q0 -123 77.5 -204t199.5 -81q87 0 149 36.5t62 74.5h-234v324h721v-166q0 -160 -54 -292t-148.5 -219.5t-223 -135.5 t-278.5 -48q-161 0 -298.5 51.5t-235.5 144t-153 225.5t-55 290z"></glyph><glyph unicode="H" d="M102 0v1370h478v-510h350v510h477v-1370h-477v426h-350v-426h-478z"></glyph><glyph unicode="I" d="M102 0v1370h473v-1370h-473z"></glyph><glyph unicode="J" d="M35 29v413q143 -28 258 -28q36 0 64.5 6.5t46.5 15t30.5 24.5t19 28.5t9.5 34.5t3.5 34t0.5 35v778h473v-866q0 -260 -149.5 -393.5t-409.5 -133.5q-185 0 -346 52z"></glyph><glyph unicode="K" d="M102 0v1370h473v-528l316 528h549l-447 -713l443 -657h-576l-285 465v-465h-473z"></glyph><glyph unicode="L" d="M102 0v1370h473v-962h553v-408h-1026z"></glyph><glyph unicode="M" d="M102 0v1370h455l365 -620l370 620h453v-1370h-453v584l-215 -342h-305l-217 344v-586h-453z"></glyph><glyph unicode="N" d="M102 0v1370h441l432 -649v649h444v-1370h-432l-440 641v-641h-445z"></glyph><glyph unicode="O" d="M53 684q0 203 93 365.5t259.5 254t374.5 91.5q156 0 292 -54t232 -147.5t151.5 -225.5t55.5 -284q0 -151 -55.5 -282.5t-151.5 -225t-232 -147.5t-292 -54t-291.5 53.5t-231 147t-150 225t-54.5 283.5zM506 684q0 -118 78 -198t196 -80q117 0 197 80.5t80 197.5 q0 118 -80 198.5t-197 80.5q-118 0 -196 -80t-78 -199z"></glyph><glyph unicode="P" d="M102 0v1370h695q233 0 383.5 -147.5t150.5 -382.5q0 -246 -153 -392.5t-412 -146.5h-195v-301h-469zM571 700h154q57 0 96 38.5t39 95.5q0 60 -37.5 98.5t-93.5 38.5h-158v-271z"></glyph><glyph unicode="Q" d="M53 684q0 203 93 365.5t259.5 254t374.5 91.5q156 0 292 -54t232 -147.5t151.5 -225.5t55.5 -284q0 -176 -72.5 -322t-203.5 -243q112 -82 252 -82q72 0 131 18v-401q-129 -23 -234 -23q-201 0 -373 101.5t-276 244.5q-147 7 -273.5 63.5t-216.5 149t-141 220.5t-51 274z M506 684q0 -118 78 -198t196 -80q117 0 197 80.5t80 197.5q0 118 -80 198.5t-197 80.5q-118 0 -196 -80t-78 -199z"></glyph><glyph unicode="R" d="M102 0v1370h742q212 0 351.5 -141.5t139.5 -356.5q0 -136 -55.5 -247t-153.5 -176l246 -449h-557l-170 350h-74v-350h-469zM571 725h174q51 0 84 35t33 88q0 54 -34 88.5t-85 34.5h-172v-246z"></glyph><glyph unicode="S" d="M33 182l184 361q99 -75 227.5 -122.5t272.5 -47.5q114 0 114 53q0 9 -2.5 16.5t-9 13.5t-13.5 10.5t-19 8.5t-21.5 7t-27 6t-29 5t-32.5 5.5t-34 5.5q-48 8 -77.5 13.5t-79.5 17t-82.5 23t-77 31t-73.5 41t-60.5 53t-50 68t-30.5 84.5t-12 103q0 113 46 201t130 143 t196.5 83t250.5 28q344 0 573 -152l-186 -350q-78 48 -194.5 84.5t-229.5 36.5q-108 0 -108 -49q0 -32 46 -47q16 -4 93 -19q15 -3 48 -9q50 -9 77 -14.5t79 -18t84 -23.5t78 -31t75 -41.5t62 -53t51.5 -67.5t31 -83t12.5 -101q0 -223 -166.5 -350.5t-474.5 -127.5 q-184 0 -354 56.5t-287 148.5z"></glyph><glyph unicode="T" d="M31 971v399h1226v-399h-376v-971h-473v971h-377z"></glyph><glyph unicode="U" d="M90 563v807h471v-770q0 -71 42 -119.5t122 -48.5q79 0 121.5 49t42.5 119v770h471v-807q0 -173 -81.5 -307t-226 -206.5t-327.5 -72.5t-327.5 72.5t-226 206.5t-81.5 307z"></glyph><glyph unicode="V" d="M-6 1370h545l194 -797l199 797h543l-455 -1370h-576z"></glyph><glyph unicode="W" d="M10 1370h488l129 -799l190 799h428l193 -778l129 778h489l-356 -1370h-500l-170 709l-174 -709h-500z"></glyph><glyph unicode="X" d="M-10 0l442 692l-428 678h555l166 -315l186 315h551l-442 -684l426 -686h-557l-158 307l-190 -307h-551z"></glyph><glyph unicode="Y" d="M-23 1370h547l178 -485l187 485h547l-500 -999v-371h-471v371z"></glyph><glyph unicode="Z" d="M80 0v369l557 602h-547v399h1151v-385l-534 -586h559v-399h-1186z"></glyph><glyph unicode="[" d="M106 -342v1841h744v-403h-291v-1035h291v-403h-744z"></glyph><glyph unicode="\" d="M35 1520h502l669 -1743h-501z"></glyph><glyph unicode="]" d="M70 61h292v1035h-292v403h745v-1841h-745v403z"></glyph><glyph unicode="^" d="M49 801l301 569h481l299 -569h-436l-104 254l-103 -254h-438z"></glyph><glyph unicode="_" d="M0 -70h1188v-317h-1188v317z"></glyph><glyph unicode="`" d="M37 1593h491l97 -368h-432z"></glyph><glyph unicode="a" d="M49 545q0 247 146.5 406t373.5 159q159 0 273 -102v77h411v-1085h-411v74q-117 -99 -281 -99q-226 0 -369 159t-143 411zM485 541q0 -78 50.5 -128.5t128.5 -50.5q75 0 125.5 52t50.5 129q0 75 -49.5 126.5t-124.5 51.5q-80 0 -130.5 -50.5t-50.5 -129.5z"></glyph><glyph unicode="b" d="M88 0v1452h440v-440q119 92 267 92q144 0 261.5 -73.5t184 -203.5t66.5 -290q0 -157 -66 -286t-182.5 -202.5t-259.5 -73.5q-160 0 -283 99v-74h-428zM518 537q0 -72 52 -124.5t124 -52.5q73 0 123.5 51.5t50.5 125.5t-51.5 127t-124.5 53q-71 0 -122.5 -53.5 t-51.5 -126.5z"></glyph><glyph unicode="c" d="M47 537q0 258 168 415.5t444 157.5q222 0 376 -108.5t190 -305.5l-410 -106q-7 58 -52.5 95.5t-107.5 37.5q-74 0 -121 -51.5t-47 -132.5q0 -77 48.5 -127t123.5 -50q59 0 104.5 36t57.5 91l387 -159q-45 -155 -193 -255t-368 -100q-273 0 -436.5 154.5t-163.5 407.5z "></glyph><glyph unicode="d" d="M49 539q0 120 40 225t108.5 179.5t165 117.5t206.5 43q145 0 262 -90v438h435v-1452h-426v72q-124 -97 -283 -97q-143 0 -259.5 73.5t-182.5 202.5t-66 288zM485 537q0 -74 51 -125.5t126 -51.5q76 0 127 51.5t51 125.5q0 78 -50.5 129t-125.5 51q-77 0 -128 -51 t-51 -129z"></glyph><glyph unicode="e" d="M47 537q0 256 164.5 414.5t433.5 158.5q261 0 419.5 -146.5t158.5 -385.5q0 -72 -6 -127h-754q13 -67 61.5 -103.5t116.5 -36.5q131 0 176 101l357 -138q-44 -138 -185.5 -218.5t-339.5 -80.5q-274 0 -438 154.5t-164 407.5zM473 668h332q-17 53 -60.5 83.5t-103.5 30.5 q-59 0 -103.5 -30t-64.5 -84z"></glyph><glyph unicode="f" d="M43 713v366h203v99q0 177 119.5 281t326.5 104q172 0 281 -41v-359q-90 23 -172 23q-59 0 -89 -20.5t-30 -71.5v-15h250v-366h-250v-713h-436v713h-203z"></glyph><glyph unicode="g" d="M51 567q0 233 144.5 386t361.5 153q158 0 283 -88v67h422v-976q0 -259 -176 -411.5t-478 -152.5q-228 0 -465 99v372q235 -102 426 -102q122 0 195.5 52t73.5 153v8q-118 -88 -283 -88q-218 0 -361 148t-143 380zM489 553q0 -71 50 -118.5t123 -47.5q72 0 122 48t50 118 q0 72 -48.5 121t-119.5 49q-76 0 -126.5 -49t-50.5 -121z"></glyph><glyph unicode="h" d="M88 0v1454h449v-414q107 66 239 66q186 0 300 -111.5t114 -294.5v-700h-451v608q0 54 -25 82.5t-69 28.5q-47 0 -77.5 -33.5t-30.5 -91.5v-594h-449z"></glyph><glyph unicode="i" d="M59 1405q0 107 73.5 180.5t180.5 73.5q106 0 179 -73.5t73 -180.5q0 -104 -73 -177t-179 -73q-107 0 -180.5 72.5t-73.5 177.5zM86 0v1085h453v-1085h-453z"></glyph><glyph unicode="j" d="M-184 -29q101 -26 188 -26q63 0 87 31t24 87v1022h448v-1136q0 -183 -124 -293.5t-339 -110.5q-159 0 -284 47v379zM86 1405q0 107 74 180.5t180 73.5q107 0 180.5 -73.5t73.5 -180.5q0 -105 -73.5 -177.5t-180.5 -72.5q-106 0 -180 73t-74 177z"></glyph><glyph unicode="k" d="M88 0v1436h447v-691l215 340h514l-330 -514l317 -571h-522l-194 393v-393h-447z"></glyph><glyph unicode="l" d="M88 0v1436h457v-1436h-457z"></glyph><glyph unicode="m" d="M88 0v1085h428v-79q109 100 285 100q180 0 284 -117q133 117 332 117q194 0 316 -113t122 -295v-698h-450v602q0 56 -26 86.5t-70 30.5q-48 0 -79.5 -36.5t-31.5 -96.5v-586h-450v604q0 54 -27.5 84.5t-71.5 30.5q-48 0 -80 -36.5t-32 -96.5v-586h-449z"></glyph><glyph unicode="n" d="M88 0v1085h428v-73q110 94 260 94q186 0 300 -111.5t114 -294.5v-700h-449v606q0 54 -26 83.5t-70 29.5q-46 0 -77 -34t-31 -91v-594h-449z"></glyph><glyph unicode="o" d="M45 537q0 247 169.5 410t436.5 163q266 0 434 -162.5t168 -410.5q0 -247 -170.5 -404.5t-431.5 -157.5q-265 0 -435.5 158.5t-170.5 403.5zM471 541q0 -76 53 -128.5t127 -52.5q77 0 126.5 52t49.5 129t-49 129.5t-125 52.5q-77 0 -129.5 -52.5t-52.5 -129.5z"></glyph><glyph unicode="p" d="M88 -412v1497h428v-84q119 101 283 101q143 0 259.5 -73.5t182.5 -203t66 -288.5q0 -244 -146 -403t-366 -159q-155 0 -267 84v-471h-440zM514 535q0 -76 51.5 -128.5t126.5 -52.5t126.5 52.5t51.5 128.5q0 75 -50.5 127.5t-125.5 52.5q-76 0 -128 -51.5t-52 -128.5z"></glyph><glyph unicode="q" d="M49 537q0 156 65 285t181 204.5t260 75.5q166 0 285 -101v84h426v-1497h-437v475q-114 -88 -270 -88q-216 0 -363 160t-147 402zM485 535q0 -76 52 -128.5t127 -52.5t125.5 52t50.5 129t-51 128.5t-127 51.5q-75 0 -126 -52.5t-51 -127.5z"></glyph><glyph unicode="r" d="M88 0v1085h428v-88q89 111 244 111q61 0 127 -27l-6 -438q-91 29 -140 29q-204 0 -204 -203v-469h-449z"></glyph><glyph unicode="s" d="M25 133l149 311q67 -53 190.5 -98t219.5 -45q94 0 94 41q0 12 -7 20t-25.5 13.5t-36.5 9t-55 9.5t-65 12q-207 42 -300 120t-93 219q0 170 129 266.5t367 96.5q260 0 483 -92l-110 -320q-91 45 -198 74t-179 29q-76 0 -76 -33q0 -12 7 -20t28 -15t39 -11t59 -12t70 -14 q82 -17 137.5 -34t108 -44t83 -61t48.5 -85t18 -118q0 -168 -139.5 -271.5t-392.5 -103.5q-155 0 -303.5 42t-249.5 114z"></glyph><glyph unicode="t" d="M47 705v380h150v263h448v-263h219v-380h-219v-230q0 -25 3.5 -42.5t13.5 -35t32 -26.5t56 -9q56 0 143 27v-366q-126 -48 -285 -48q-210 0 -310.5 99t-100.5 276v355h-150z"></glyph><glyph unicode="u" d="M78 455v630h450v-612q0 -54 26 -82.5t69 -28.5q48 0 78 35t30 95v593h449v-1085h-428v78q-114 -103 -281 -103q-185 0 -289 123t-104 357z"></glyph><glyph unicode="v" d="M-4 1083h500l131 -594h12l127 594h500l-389 -1083h-496z"></glyph><glyph unicode="w" d="M-4 1083h483l90 -499l138 499h376l140 -477l84 477h483l-303 -1085h-440l-148 534l-149 -534h-449z"></glyph><glyph unicode="x" d="M-2 0l317 537l-315 548h502l110 -270l138 270h485l-320 -548l324 -537h-502l-125 258l-127 -258h-487z"></glyph><glyph unicode="y" d="M-18 1085h456l213 -634l180 634h457l-309 -942q-27 -82 -50 -141.5t-55.5 -126t-67 -112t-83 -90t-104.5 -70.5t-129.5 -42t-161.5 -16q-147 0 -291 60v383q128 -62 244 -62q112 0 157 29z"></glyph><glyph unicode="z" d="M70 0v313l407 398h-383v374h971v-299l-414 -413h436v-373h-1017z"></glyph><glyph unicode="{" d="M37 410v340q119 0 164.5 29.5t38.5 111.5l-17 170q-4 46 -4 65q0 87 23.5 156t62.5 113t92 73.5t109 41.5t117 12q47 0 194 -15v-379q-31 7 -51 7q-59 0 -99 -35.5t-32 -112.5l16 -149q2 -14 2 -43q0 -159 -131 -213q131 -58 131 -215q0 -29 -2 -43l-16 -150 q-8 -77 32 -112t99 -35q24 0 51 6v-379q-138 -14 -194 -14q-61 0 -117 12t-109 41t-92 73t-62.5 113t-23.5 156q0 19 4 65l17 170q8 79 -36 110t-167 30z"></glyph><glyph unicode="|" d="M109 -455v2155h395v-2155h-395z"></glyph><glyph unicode="}" d="M84 33q27 -6 51 -6q59 0 99 35t32 112l-16 150q-2 14 -2 43q0 157 131 215q-131 54 -131 213q0 29 2 43l16 149q8 77 -32 112.5t-99 35.5q-19 0 -51 -7v379q148 15 195 15q78 0 146 -20.5t127.5 -64.5t94.5 -124t35 -187q0 -19 -4 -65l-16 -170q-7 -82 38 -111.5 t164 -29.5v-340q-118 2 -163.5 -28t-38.5 -112l16 -170q4 -46 4 -65q0 -107 -35 -187t-94.5 -123.5t-127.5 -64t-146 -20.5q-57 0 -195 14v379z"></glyph><glyph unicode="~" d="M70 373q2 116 27 210t64.5 156t92 104t108 60.5t113.5 18.5q57 0 104.5 -15.5t78.5 -37.5t56.5 -44t51 -37.5t49.5 -15.5q43 0 65.5 30t28.5 111h379q-6 -248 -119.5 -397t-296.5 -149q-55 0 -102 16t-78 38.5t-58 44.5t-55.5 38t-56.5 16q-39 0 -54 -29t-19 -118h-379z "></glyph><glyph unicode="¡" d="M78 -455l37 926h452l43 -926h-532zM94 776q0 102 71 174t175 72t175 -72t71 -174t-71 -174t-175 -72t-175 72t-71 174z"></glyph><glyph unicode="¢" d="M68 709q0 216 119 363.5t325 191.5v241h297v-235q173 -30 288.5 -134t145.5 -270l-407 -106q-9 59 -54 96t-106 37q-74 0 -122 -51.5t-48 -132.5q0 -77 48.5 -127t123.5 -50q60 0 105 35.5t57 91.5l389 -159q-38 -127 -147.5 -219.5t-272.5 -122.5v-262h-297v264 q-206 41 -325 187.5t-119 361.5z"></glyph><glyph unicode="£" d="M70 340q107 35 142 69.5t38 104.5h-160v299h96q-18 74 -18 135q0 199 153 323t396 124q45 0 87 -3.5t99.5 -15.5t105 -32t97 -57.5t83.5 -87.5t55.5 -125.5t21.5 -168.5l-410 -24q0 129 -123 129q-51 0 -85 -33t-34 -84q0 -29 19 -80h399v-299h-346q-9 -72 -35 -131h582 v-383h-1096z"></glyph><glyph unicode="¤" d="M63 373l15 22l147 107q-41 84 -41 186q0 94 35 172l-141 103l-15 22l269 258l16 -16l96 -146q84 35 181 35q87 0 174 -33l96 144l16 16l265 -258l-13 -22l-133 -97q37 -85 37 -178q0 -104 -45 -192l141 -101l13 -22l-265 -260l-16 16l-107 162q-82 -29 -163 -29 q-89 0 -168 31l-109 -164l-16 -16zM502 686q0 -66 32 -103.5t89 -37.5t87.5 37t30.5 104t-31 105t-87 38q-57 0 -89 -38.5t-32 -104.5z"></glyph><glyph unicode="¥" d="M41 1370h500l161 -524l160 524h502l-332 -704h144v-230h-242v-63h242v-232h-242v-141h-469v141h-234v232h234v63h-234v230h138z"></glyph><glyph unicode="¦" d="M109 406h395v-861h-395v861zM109 840v860h395v-860h-395z"></glyph><glyph unicode="§" d="M63 -184l146 299q78 -61 189 -102.5t216 -41.5q109 0 109 41q0 23 -35 40t-91.5 30t-124.5 28t-135.5 40.5t-124 60t-91.5 93t-35 134.5q0 94 49.5 164.5t138.5 104.5q-168 89 -168 280q0 188 139.5 297t364.5 109q136 0 272.5 -39t202.5 -97l-159 -288q-59 36 -160 68 t-182 32q-86 0 -86 -35q0 -20 27.5 -35t73 -25t103 -24.5t118 -29.5t118 -42t103 -61.5t73 -89.5t27.5 -123q0 -89 -50.5 -161.5t-150.5 -100.5q178 -87 178 -285q0 -191 -145.5 -306.5t-374.5 -115.5q-152 0 -303.5 51.5t-231.5 129.5zM477 547q0 -27 15 -47.5t46.5 -35.5 t63 -24t82.5 -20q59 36 59 84q0 18 -7 32.5t-24.5 26.5t-32.5 20t-46.5 17t-50 13.5t-58.5 13.5q-47 -36 -47 -80z"></glyph><glyph unicode="¨" d="M53 1391q0 95 66.5 161t163.5 66t164 -66t67 -161q0 -98 -67 -166t-164 -68t-163.5 68t-66.5 166zM557 1391q0 95 68 161t166 66q95 0 162 -66t67 -161q0 -98 -67 -166t-162 -68q-98 0 -166 68t-68 166z"></glyph><glyph unicode="©" d="M63 690q0 152 54 283.5t147.5 225t225.5 147t284 53.5q151 0 282 -53.5t224 -147t146 -225t53 -283.5q0 -202 -90.5 -364.5t-252 -254t-362.5 -91.5q-202 0 -365 91.5t-254.5 254t-91.5 364.5zM289 690q0 -214 137.5 -354.5t347.5 -140.5q209 0 346 140.5t137 354.5 t-137 354t-346 140q-211 0 -348 -140t-137 -354zM393 684q0 172 110.5 275.5t291.5 103.5q99 0 193.5 -55.5t146.5 -141.5l-267 -135q-9 23 -34.5 39t-53.5 16q-43 0 -70.5 -29t-27.5 -73q0 -43 28.5 -72.5t71.5 -29.5q31 0 58.5 16t36.5 39l256 -139q-44 -86 -136 -139.5 t-206 -53.5q-175 0 -286.5 104t-111.5 275z"></glyph><glyph unicode="ª" d="M57 1044q0 76 55.5 122t159.5 46h142q0 31 -16 43.5t-76 12.5q-107 0 -218 -43l-16 174q110 47 254 47q61 0 109.5 -10t78.5 -23.5t51.5 -36.5t31.5 -40.5t15.5 -43.5t6 -37.5t0.5 -30.5v-7v-345h-219v31q-64 -41 -150 -41q-94 0 -151.5 50t-57.5 132zM289 1059 q0 -41 51 -41q31 0 52.5 17.5t21.5 43.5v23h-74q-21 0 -36 -11.5t-15 -31.5z"></glyph><glyph unicode="«" d="M45 516l209 453h489l-208 -453l192 -461h-491zM641 516l207 453h491l-209 -453l193 -461h-492z"></glyph><glyph unicode="¬" d="M94 438v379h1063v-573h-385v194h-678z"></glyph><glyph unicode="­" d="M98 414v379h742v-379h-742z"></glyph><glyph unicode="®" d="M63 690q0 152 54 283.5t147.5 225t225.5 147t284 53.5q151 0 282 -53.5t224 -147t146 -225t53 -283.5q0 -202 -90.5 -364.5t-252 -254t-362.5 -91.5q-202 0 -365 91.5t-254.5 254t-91.5 364.5zM289 690q0 -214 137.5 -354.5t347.5 -140.5q199 0 336 131h-279l-79 176h-21 v-176h-276v721h374q130 0 210.5 -77t80.5 -196q0 -156 -112 -221l116 -213q133 139 133 350q0 214 -137 354t-346 140q-211 0 -348 -140t-137 -354zM731 715h47q28 0 47 17t19 42q0 28 -17 45t-43 17h-53v-121z"></glyph><glyph unicode="¯" d="M86 1255v297h801v-297h-801z"></glyph><glyph unicode="°" d="M49 1077q0 136 94.5 226t237.5 90q146 0 241 -89.5t95 -226.5q0 -135 -95 -223t-241 -88q-143 0 -237.5 88t-94.5 223zM299 1077q0 -37 23.5 -61.5t58.5 -24.5q37 0 60.5 24.5t23.5 61.5q0 39 -23.5 64.5t-60.5 25.5q-35 0 -58.5 -26t-23.5 -64z"></glyph><glyph unicode="±" d="M96 -16v393h944v-393h-944zM96 684v393h262v250h422v-250h260v-393h-260v-250h-422v250h-262z"></glyph><glyph unicode="²" d="M39 1376q4 126 101.5 203.5t242.5 77.5q152 0 240 -73t88 -189q0 -71 -38 -126.5t-93 -92.5l-95 -62h230v-207h-660v170l291 199q68 47 83 64q17 20 17 42q0 28 -19 44t-50 16q-43 0 -64.5 -29.5t-25.5 -69.5z"></glyph><glyph unicode="³" d="M29 1110l221 74q10 -38 42 -61t75 -23t71.5 22t28.5 54q0 34 -28 53.5t-72 19.5q-41 0 -91 -22l-83 125l174 86h-297v209h622v-201l-141 -80q81 -15 132.5 -67t51.5 -138q0 -118 -100.5 -191t-267.5 -73q-141 0 -232 55.5t-106 157.5z"></glyph><glyph unicode="´" d="M43 1225l92 368h492l-154 -368h-430z"></glyph><glyph unicode="¶" d="M45 848q0 221 155.5 371.5t385.5 150.5h1079v-399h-186v-1313h-338v1313h-156v-1313h-418v661q-222 3 -372 155t-150 374z"></glyph><glyph unicode="·" d="M61 655q0 103 71 173.5t175 70.5t176 -70.5t72 -173.5q0 -104 -72 -175.5t-176 -71.5t-175 71.5t-71 175.5z"></glyph><glyph unicode="¸" d="M61 -207q101 -29 160 -29q36 0 53 9t17 32q0 19 -18 30t-46 11h-102l-16 25l73 207l289 2l-37 -121q82 -12 128 -63.5t46 -126.5q0 -102 -88 -171t-225 -69q-129 0 -234 33v231z"></glyph><glyph unicode="¹" d="M57 907v215h217v264l-211 -49v232l293 78h172v-525h203v-215h-674z"></glyph><glyph unicode="º" d="M49 1153q0 130 86.5 211.5t222.5 81.5q135 0 223.5 -83t88.5 -210q0 -129 -88.5 -213t-223.5 -84t-222 83.5t-87 213.5zM266 1153q0 -40 27 -67t65 -27q40 0 66.5 27t26.5 67q0 41 -26.5 66.5t-66.5 25.5q-39 0 -65.5 -25.5t-26.5 -66.5z"></glyph><glyph unicode="»" d="M45 969h490l206 -453l-188 -461h-492l191 461zM639 969h489l209 -453l-190 -461h-492l193 461z"></glyph><glyph unicode="¼" d="M70 645v215h217v264l-209 -49v232l293 77h172v-524h200v-215h-673zM338 0l981 1370h315l-966 -1370h-330zM1102 111v155l266 447h389l-14 -4v-414h88v-184h-88v-123h-248v123h-393zM1362 295h133v235z"></glyph><glyph unicode="½" d="M63 645v215h218v264l-211 -49v232l295 77h172v-524h200v-215h-674zM319 0l981 1370h318l-969 -1370h-330zM1120 457q4 126 101.5 203t242.5 77q153 0 240.5 -72.5t87.5 -189.5q0 -69 -37.5 -124.5t-93.5 -92.5l-96 -63h231v-207h-659v172l290 196q69 47 84 66 q17 20 17 41q0 27 -19 42t-51 15q-43 0 -64.5 -28t-25.5 -68z"></glyph><glyph unicode="¾" d="M49 848l221 74q9 -38 41.5 -61t75.5 -23t71.5 21.5t28.5 53.5q0 34 -28 54t-72 20q-43 0 -90 -22l-86 125l176 86h-299v208h625v-200l-142 -80q80 -14 132.5 -67t52.5 -138q0 -118 -101.5 -191t-267.5 -73q-142 0 -232.5 55.5t-105.5 157.5zM281 0l981 1370h315 l-967 -1370h-329zM1044 111v155l265 447h389l-15 -4v-414h91v-184h-91v-123h-247v123h-392zM1305 295h131v233z"></glyph><glyph unicode="¿" d="M55 -33q0 61 20 114.5t51.5 91.5t70.5 71.5t77.5 60t70 50t51.5 48t20 48.5v36h446v-63q0 -61 -24 -113.5t-60 -87.5t-78.5 -67.5t-78.5 -55.5t-60 -48.5t-24 -49.5q0 -25 28.5 -46.5t79.5 -21.5q106 0 172 111l350 -221q-29 -58 -74.5 -106t-111.5 -88t-159.5 -62.5 t-205.5 -22.5q-254 0 -407.5 116.5t-153.5 305.5zM397 801q0 103 67.5 170t170.5 67t171 -67t68 -170q0 -102 -68.5 -171t-170.5 -69t-170 69t-68 171z"></glyph><glyph unicode="À" d="M-10 0l440 1370h584l430 -1370h-496l-35 162h-383l-38 -162h-502zM315 1907h510l125 -420h-471zM623 551h204l-106 436z"></glyph><glyph unicode="Á" d="M-10 0l440 1370h584l430 -1370h-496l-35 162h-383l-38 -162h-502zM479 1487l125 420h510l-164 -420h-471zM623 551h204l-106 436z"></glyph><glyph unicode="Â" d="M-10 0l440 1370h584l430 -1370h-496l-35 162h-383l-38 -162h-502zM184 1487l295 440h477l293 -440h-436l-96 180l-96 -180h-437zM623 551h204l-106 436z"></glyph><glyph unicode="Ã" d="M-10 0l440 1370h584l430 -1370h-496l-35 162h-383l-38 -162h-502zM225 1587q0 68 16.5 125t51 103t94.5 72t141 26q55 0 99 -12t71 -28.5t49.5 -33.5t46 -29t48.5 -12q42 0 68 29.5t22 75.5h317q4 -40 4 -60q0 -69 -18.5 -129t-54.5 -108t-95.5 -75.5t-136.5 -27.5 q-51 0 -94 12.5t-71.5 30.5t-52.5 36.5t-48.5 31t-48.5 12.5q-41 0 -65 -29.5t-23 -78.5h-316q-4 46 -4 69zM623 551h204l-106 436z"></glyph><glyph unicode="Ä" d="M-10 0l440 1370h584l430 -1370h-496l-35 162h-383l-38 -162h-502zM209 1724q0 103 70.5 172.5t173.5 69.5q101 0 171 -70t70 -172q0 -104 -69.5 -174.5t-171.5 -70.5q-103 0 -173.5 70.5t-70.5 174.5zM623 551h204l-106 436zM741 1724q0 103 70.5 172.5t173.5 69.5 q101 0 170.5 -69.5t69.5 -172.5q0 -104 -69.5 -174.5t-170.5 -70.5q-103 0 -173.5 70.5t-70.5 174.5z"></glyph><glyph unicode="Å" d="M-10 0l440 1370h584l430 -1370h-496l-35 162h-383l-38 -162h-502zM401 1710q0 121 90.5 199t227.5 78t227 -78t90 -199t-90 -200.5t-227 -79.5t-227.5 79.5t-90.5 200.5zM616 1706q0 -44 30 -72t73 -28t72.5 28t29.5 72q0 41 -29.5 69.5t-72.5 28.5t-73 -28.5t-30 -69.5z M623 551h204l-106 436z"></glyph><glyph unicode="Æ" d="M-37 0l666 1370h1290v-393h-576v-113h545v-358h-545v-113h599v-393h-1029v199h-389l-90 -199h-471zM688 561h225v500z"></glyph><glyph unicode="Ç" d="M53 684q0 151 54.5 283t149.5 226t230.5 148t292.5 54q220 0 394 -102.5t251 -274.5l-405 -209q-34 72 -100 113t-148 41q-117 0 -191.5 -78t-74.5 -201q0 -121 75.5 -199.5t192.5 -78.5q86 0 154.5 45t97.5 120l414 -190q-61 -156 -200 -260t-325 -135l-18 -56 q80 -12 126 -63t46 -123q0 -99 -87.5 -165t-223.5 -66q-48 0 -76.5 1.5t-72 8.5t-87.5 22v222q122 -27 162 -27q70 0 70 41q0 18 -18 29.5t-44 11.5h-106l-15 20l52 148q-168 31 -297 127.5t-201 243.5t-72 323z"></glyph><glyph unicode="È" d="M102 0v1370h1041v-393h-586v-113h569v-356h-569v-115h608v-393h-1063zM213 1907h510l125 -420h-471z"></glyph><glyph unicode="É" d="M102 0v1370h1041v-393h-586v-113h569v-356h-569v-115h608v-393h-1063zM377 1487l125 420h510l-164 -420h-471z"></glyph><glyph unicode="Ê" d="M82 1487l295 440h477l291 -440h-436l-95 180l-96 -180h-436zM102 0v1370h1041v-393h-586v-113h569v-356h-569v-115h608v-393h-1063z"></glyph><glyph unicode="Ë" d="M102 0v1370h1041v-393h-586v-113h569v-356h-569v-115h608v-393h-1063zM104 1724q0 102 71 172t173 70q103 0 173.5 -69.5t70.5 -172.5q0 -104 -70.5 -174.5t-173.5 -70.5q-102 0 -173 70.5t-71 174.5zM639 1724q0 102 70 172t172 70q103 0 172 -69.5t69 -172.5 q0 -104 -69 -174.5t-172 -70.5q-102 0 -172 70.5t-70 174.5z"></glyph><glyph unicode="Ì" d="M-59 1907h510l124 -420h-471zM102 0v1370h473v-1370h-473z"></glyph><glyph unicode="Í" d="M102 0v1370h473v-1370h-473zM104 1487l125 420h510l-164 -420h-471z"></glyph><glyph unicode="Î" d="M-190 1487l294 440h478l290 -440h-434l-96 180l-96 -180h-436zM102 0v1370h473v-1370h-473z"></glyph><glyph unicode="Ï" d="M-168 1724q0 102 71.5 172t174.5 70q102 0 171.5 -70t69.5 -172q0 -104 -69.5 -174.5t-171.5 -70.5q-103 0 -174.5 70.5t-71.5 174.5zM102 0v1370h473v-1370h-473zM367 1724q0 103 70 172.5t173 69.5q101 0 170.5 -69.5t69.5 -172.5q0 -104 -69.5 -174.5t-170.5 -70.5 q-103 0 -173 70.5t-70 174.5z"></glyph><glyph unicode="Ð" d="M27 545v289h141v536h590q340 0 526 -185.5t186 -502.5q0 -316 -182 -499t-516 -183h-604v545h-141zM637 430h180q77 0 127.5 72t50.5 190q0 113 -50.5 180.5t-127.5 67.5h-180v-106h194v-289h-194v-115z"></glyph><glyph unicode="Ñ" d="M102 0v1370h441l432 -649v649h444v-1370h-432l-440 641v-641h-445zM262 1587q0 68 16.5 125t51.5 103t95 72t140 26q67 0 118.5 -18.5t77.5 -40t57 -40t61 -18.5q41 0 67 29.5t23 75.5h317q2 -18 2 -56q0 -146 -77 -245t-226 -99q-63 0 -115 19.5t-80 43t-60.5 43 t-61.5 19.5q-40 0 -64.5 -30.5t-21.5 -79.5h-316q-4 50 -4 71z"></glyph><glyph unicode="Ò" d="M53 684q0 203 93 365.5t259.5 254t374.5 91.5q156 0 292 -54t232 -147.5t151.5 -225.5t55.5 -284q0 -151 -55.5 -282.5t-151.5 -225t-232 -147.5t-292 -54t-291.5 53.5t-231 147t-150 225t-54.5 283.5zM379 1903h510l123 -422h-469zM506 684q0 -118 78 -198t196 -80 q117 0 197 80.5t80 197.5q0 118 -80 198.5t-197 80.5q-118 0 -196 -80t-78 -199z"></glyph><glyph unicode="Ó" d="M53 684q0 203 93 365.5t259.5 254t374.5 91.5q156 0 292 -54t232 -147.5t151.5 -225.5t55.5 -284q0 -151 -55.5 -282.5t-151.5 -225t-232 -147.5t-292 -54t-291.5 53.5t-231 147t-150 225t-54.5 283.5zM506 684q0 -118 78 -198t196 -80q117 0 197 80.5t80 197.5 q0 118 -80 198.5t-197 80.5q-118 0 -196 -80t-78 -199zM543 1481l125 422h508l-164 -422h-469z"></glyph><glyph unicode="Ô" d="M53 684q0 203 93 365.5t259.5 254t374.5 91.5q156 0 292 -54t232 -147.5t151.5 -225.5t55.5 -284q0 -151 -55.5 -282.5t-151.5 -225t-232 -147.5t-292 -54t-291.5 53.5t-231 147t-150 225t-54.5 283.5zM248 1481l295 440h477l291 -440h-437l-94 180l-96 -180h-436z M506 684q0 -118 78 -198t196 -80q117 0 197 80.5t80 197.5q0 118 -80 198.5t-197 80.5q-118 0 -196 -80t-78 -199z"></glyph><glyph unicode="Õ" d="M53 684q0 203 93 365.5t259.5 254t374.5 91.5q156 0 292 -54t232 -147.5t151.5 -225.5t55.5 -284q0 -151 -55.5 -282.5t-151.5 -225t-232 -147.5t-292 -54t-291.5 53.5t-231 147t-150 225t-54.5 283.5zM287 1579q0 69 17 126.5t51.5 104t95 73t141.5 26.5 q67 0 118.5 -18.5t77 -40t56.5 -40t61 -18.5q42 0 67.5 29.5t22.5 74.5h318q2 -18 2 -55q0 -146 -77 -245t-226 -99q-63 0 -115.5 19.5t-80.5 43t-61 43t-61 19.5q-40 0 -64.5 -31t-21.5 -80h-317q-4 46 -4 68zM506 684q0 -118 78 -198t196 -80q117 0 197 80.5t80 197.5 q0 118 -80 198.5t-197 80.5q-118 0 -196 -80t-78 -199z"></glyph><glyph unicode="Ö" d="M53 684q0 203 93 365.5t259.5 254t374.5 91.5q156 0 292 -54t232 -147.5t151.5 -225.5t55.5 -284q0 -151 -55.5 -282.5t-151.5 -225t-232 -147.5t-292 -54t-291.5 53.5t-231 147t-150 225t-54.5 283.5zM270 1720q0 101 71.5 171.5t172.5 70.5q103 0 173.5 -70.5 t70.5 -171.5q0 -104 -70.5 -174.5t-173.5 -70.5q-102 0 -173 70.5t-71 174.5zM506 684q0 -118 78 -198t196 -80q117 0 197 80.5t80 197.5q0 118 -80 198.5t-197 80.5q-118 0 -196 -80t-78 -199zM805 1720q0 101 70.5 171.5t171.5 70.5q102 0 171.5 -70t69.5 -172 q0 -104 -69 -174.5t-172 -70.5q-102 0 -172 70.5t-70 174.5z"></glyph><glyph unicode="×" d="M61 430l238 242l-236 237l267 262l233 -233l236 238l268 -265l-236 -239l244 -242l-268 -270l-240 241l-237 -241z"></glyph><glyph unicode="Ø" d="M53 684q0 152 54.5 283.5t150 225t229.5 147t289 53.5q172 0 324 -68l143 195l176 -127l-137 -191q104 -97 161.5 -230t57.5 -288q0 -200 -93.5 -362t-259.5 -253.5t-372 -91.5q-176 0 -325 70l-150 -203l-182 146l139 188q-98 97 -151.5 226.5t-53.5 279.5zM483 684 q0 -87 41 -152l322 439q-31 8 -70 8q-125 0 -209 -85t-84 -210zM698 399q42 -10 78 -10q125 0 209 85.5t84 209.5q0 93 -47 164z"></glyph><glyph unicode="Ù" d="M90 563v807h471v-770q0 -71 42 -119.5t122 -48.5q79 0 121.5 49t42.5 119v770h471v-807q0 -173 -81.5 -307t-226 -206.5t-327.5 -72.5t-327.5 72.5t-226 206.5t-81.5 307zM324 1907h507l125 -420h-469z"></glyph><glyph unicode="Ú" d="M90 563v807h471v-770q0 -71 42 -119.5t122 -48.5q79 0 121.5 49t42.5 119v770h471v-807q0 -173 -81.5 -307t-226 -206.5t-327.5 -72.5t-327.5 72.5t-226 206.5t-81.5 307zM487 1487l123 420h510l-164 -420h-469z"></glyph><glyph unicode="Û" d="M90 563v807h471v-770q0 -71 42 -119.5t122 -48.5q79 0 121.5 49t42.5 119v770h471v-807q0 -173 -81.5 -307t-226 -206.5t-327.5 -72.5t-327.5 72.5t-226 206.5t-81.5 307zM193 1487l294 440h476l292 -440h-436l-94 180l-98 -180h-434z"></glyph><glyph unicode="Ü" d="M90 563v807h471v-770q0 -71 42 -119.5t122 -48.5q79 0 121.5 49t42.5 119v770h471v-807q0 -173 -81.5 -307t-226 -206.5t-327.5 -72.5t-327.5 72.5t-226 206.5t-81.5 307zM215 1724q0 102 71 172t173 70q101 0 171 -70t70 -172q0 -104 -69.5 -174.5t-171.5 -70.5 t-173 70.5t-71 174.5zM750 1724q0 102 70 172t171 70q102 0 172 -70t70 -172q0 -104 -70 -174.5t-172 -70.5t-171.5 70.5t-69.5 174.5z"></glyph><glyph unicode="Ý" d="M-23 1370h547l178 -485l187 485h547l-500 -999v-371h-471v371zM469 1487l125 420h508l-164 -420h-469z"></glyph><glyph unicode="Þ" d="M102 0v1370h469v-147h203q234 0 385.5 -147.5t151.5 -383.5q0 -247 -153.5 -392.5t-412.5 -145.5h-174v-154h-469zM571 553h129q59 0 98.5 38t39.5 95q0 60 -37.5 98.5t-93.5 38.5h-136v-270z"></glyph><glyph unicode="ß" d="M86 -369v1268q0 279 170 429.5t457 150.5q256 0 409.5 -116t153.5 -304q0 -96 -41 -174.5t-113 -126.5q97 -45 152 -134t55 -210q0 -192 -130.5 -315.5t-328.5 -123.5q-52 0 -120.5 8t-106.5 19v381q62 -16 131 -16q56 0 85.5 26.5t29.5 69.5t-30 66.5t-75 23.5h-153v319 h80q63 0 100 31.5t37 81.5q0 49 -36 74.5t-95 25.5q-80 0 -130 -50.5t-50 -153.5v-1250h-451z"></glyph><glyph unicode="à" d="M49 545q0 247 146.5 406t373.5 159q159 0 273 -102v77h411v-1085h-411v74q-117 -99 -281 -99q-226 0 -369 159t-143 411zM328 1595h491l94 -368h-430zM485 541q0 -78 50.5 -128.5t128.5 -50.5q75 0 125.5 52t50.5 129q0 75 -49.5 126.5t-124.5 51.5q-80 0 -130.5 -50.5 t-50.5 -129.5z"></glyph><glyph unicode="á" d="M49 545q0 247 146.5 406t373.5 159q159 0 273 -102v77h411v-1085h-411v74q-117 -99 -281 -99q-226 0 -369 159t-143 411zM485 541q0 -78 50.5 -128.5t128.5 -50.5q75 0 125.5 52t50.5 129q0 75 -49.5 126.5t-124.5 51.5q-80 0 -130.5 -50.5t-50.5 -129.5zM494 1225 l92 368h491l-153 -368h-430z"></glyph><glyph unicode="â" d="M49 545q0 247 146.5 406t373.5 159q159 0 273 -102v77h411v-1085h-411v74q-117 -99 -281 -99q-226 0 -369 159t-143 411zM231 1221l256 383h418l256 -383h-383l-82 153l-82 -153h-383zM485 541q0 -78 50.5 -128.5t128.5 -50.5q75 0 125.5 52t50.5 129q0 75 -49.5 126.5 t-124.5 51.5q-80 0 -130.5 -50.5t-50.5 -129.5z"></glyph><glyph unicode="ã" d="M49 545q0 247 146.5 406t373.5 159q159 0 273 -102v77h411v-1085h-411v74q-117 -99 -281 -99q-226 0 -369 159t-143 411zM242 1288q0 67 17 124t52 104t97 73.5t145 26.5q52 0 90.5 -12.5t59.5 -30t37.5 -35.5t35 -30.5t41.5 -12.5q71 0 66 107h317q4 -40 4 -60 q0 -68 -18.5 -128t-55 -108.5t-97.5 -77t-140 -28.5q-49 0 -88 13t-63 32t-43.5 37.5t-40.5 31.5t-44 13q-35 0 -45 -23.5t-8 -86.5h-315q-4 50 -4 71zM485 541q0 -78 50.5 -128.5t128.5 -50.5q75 0 125.5 52t50.5 129q0 75 -49.5 126.5t-124.5 51.5q-80 0 -130.5 -50.5 t-50.5 -129.5z"></glyph><glyph unicode="ä" d="M49 545q0 247 146.5 406t373.5 159q159 0 273 -102v77h411v-1085h-411v74q-117 -99 -281 -99q-226 0 -369 159t-143 411zM217 1393q0 95 67.5 161t164.5 66t164 -66t67 -161q0 -98 -67 -166t-164 -68t-164.5 68t-67.5 166zM485 541q0 -78 50.5 -128.5t128.5 -50.5 q75 0 125.5 52t50.5 129q0 75 -49.5 126.5t-124.5 51.5q-80 0 -130.5 -50.5t-50.5 -129.5zM723 1393q0 95 67 161t164 66t163.5 -66t66.5 -161q0 -98 -66.5 -166t-163.5 -68t-164 68t-67 166z"></glyph><glyph unicode="å" d="M49 545q0 247 146.5 406t373.5 159q159 0 273 -102v77h411v-1085h-411v74q-117 -99 -281 -99q-226 0 -369 159t-143 411zM385 1473q0 118 88 195t221 77q134 0 222 -77t88 -195t-88 -195.5t-222 -77.5q-132 0 -220.5 77.5t-88.5 195.5zM485 541q0 -78 50.5 -128.5 t128.5 -50.5q75 0 125.5 52t50.5 129q0 75 -49.5 126.5t-124.5 51.5q-80 0 -130.5 -50.5t-50.5 -129.5zM596 1470q0 -42 28 -70t70 -28q43 0 72 28t29 70q0 41 -29 70t-72 29q-41 0 -69.5 -29t-28.5 -70z"></glyph><glyph unicode="æ" d="M45 338q0 155 111.5 239.5t324.5 84.5h219q-2 24 -9.5 40.5t-28.5 34t-67 26.5t-116 9q-185 0 -346 -63v319q77 36 188.5 58t231.5 22q259 0 387 -123q148 125 375 125q242 0 396.5 -147.5t154.5 -380.5q0 -60 -6 -127h-719q10 -67 50.5 -106.5t113.5 -39.5 q114 0 168 101l350 -129q-47 -148 -181.5 -227t-332.5 -79q-258 0 -396 144q-151 -144 -417 -144q-212 0 -331.5 99.5t-119.5 263.5zM446 362q0 -73 107 -73q62 0 101.5 36t45.5 109h-147q-55 0 -81 -22.5t-26 -49.5zM1147 666h307q-14 54 -54 85t-100 31q-56 0 -96 -30.5 t-57 -85.5z"></glyph><glyph unicode="ç" d="M47 537q0 258 168 415.5t444 157.5q222 0 376 -108.5t190 -305.5l-410 -106q-7 58 -52.5 95.5t-107.5 37.5q-74 0 -121 -51.5t-47 -132.5q0 -77 48.5 -127t123.5 -50q59 0 104.5 36t57.5 91l387 -159q-40 -134 -159 -229t-297 -119l-21 -68q82 -12 128 -61t46 -119 q0 -97 -88.5 -161.5t-224.5 -64.5t-236 31v219q103 -28 162 -28q70 0 70 39q0 36 -64 36h-102l-16 25l63 166q-197 46 -309.5 190t-112.5 351z"></glyph><glyph unicode="è" d="M47 537q0 256 164.5 414.5t433.5 158.5q261 0 419.5 -146.5t158.5 -385.5q0 -72 -6 -127h-754q13 -67 61.5 -103.5t116.5 -36.5q131 0 176 101l357 -138q-44 -138 -185.5 -218.5t-339.5 -80.5q-274 0 -438 154.5t-164 407.5zM281 1597h491l94 -368h-430zM473 668h332 q-17 53 -60.5 83.5t-103.5 30.5q-59 0 -103.5 -30t-64.5 -84z"></glyph><glyph unicode="é" d="M47 537q0 256 164.5 414.5t433.5 158.5q261 0 419.5 -146.5t158.5 -385.5q0 -72 -6 -127h-754q13 -67 61.5 -103.5t116.5 -36.5q131 0 176 101l357 -138q-44 -138 -185.5 -218.5t-339.5 -80.5q-274 0 -438 154.5t-164 407.5zM446 1227l93 368h491l-153 -368h-431z M473 668h332q-17 53 -60.5 83.5t-103.5 30.5q-59 0 -103.5 -30t-64.5 -84z"></glyph><glyph unicode="ê" d="M47 537q0 256 164.5 414.5t433.5 158.5q261 0 419.5 -146.5t158.5 -385.5q0 -72 -6 -127h-754q13 -67 61.5 -103.5t116.5 -36.5q131 0 176 101l357 -138q-44 -138 -185.5 -218.5t-339.5 -80.5q-274 0 -438 154.5t-164 407.5zM184 1223l256 383h418l256 -383h-383l-82 153 l-82 -153h-383zM473 668h332q-17 53 -60.5 83.5t-103.5 30.5q-59 0 -103.5 -30t-64.5 -84z"></glyph><glyph unicode="ë" d="M47 537q0 256 164.5 414.5t433.5 158.5q261 0 419.5 -146.5t158.5 -385.5q0 -72 -6 -127h-754q13 -67 61.5 -103.5t116.5 -36.5q131 0 176 101l357 -138q-44 -138 -185.5 -218.5t-339.5 -80.5q-274 0 -438 154.5t-164 407.5zM170 1395q0 94 67.5 160.5t163.5 66.5 q95 0 163.5 -66.5t68.5 -160.5q0 -98 -68 -167t-164 -69q-97 0 -164 69t-67 167zM473 668h332q-17 53 -60.5 83.5t-103.5 30.5q-59 0 -103.5 -30t-64.5 -84zM676 1395q0 94 67.5 160.5t163.5 66.5t163 -66.5t67 -160.5q0 -98 -66.5 -167t-163.5 -69t-164 69t-67 167z"></glyph><glyph unicode="ì" d="M-59 1595h491l96 -368h-432zM88 0v1085h453v-1085h-453z"></glyph><glyph unicode="í" d="M88 0v1085h453v-1085h-453zM106 1225l95 368h491l-155 -368h-431z"></glyph><glyph unicode="î" d="M-156 1221l258 383h418l254 -383h-383l-82 153l-82 -153h-383zM88 0v1085h453v-1085h-453z"></glyph><glyph unicode="ï" d="M-168 1393q0 95 66 161t163 66t164.5 -66t67.5 -161q0 -98 -67.5 -166t-164.5 -68t-163 68t-66 166zM88 0v1085h453v-1085h-453zM336 1393q0 95 67.5 161t165.5 66q96 0 163 -66t67 -161q0 -98 -67 -166t-163 -68q-98 0 -165.5 68t-67.5 166z"></glyph><glyph unicode="ð" d="M47 522q0 227 147.5 369.5t383.5 142.5q126 0 217 -51q-64 105 -263 184l-167 -116l-82 114l82 58q-93 22 -166 34l116 353q248 -27 445 -113l194 135l82 -114l-137 -95q387 -248 387 -757q0 -202 -79.5 -359.5t-223.5 -244.5t-328 -87q-271 0 -439.5 152t-168.5 395z M496 539q0 -71 49.5 -119.5t124.5 -48.5q72 0 121 48t49 118q0 73 -49 122.5t-121 49.5q-75 0 -124.5 -49t-49.5 -121z"></glyph><glyph unicode="ñ" d="M88 0v1085h428v-73q110 94 260 94q186 0 300 -111.5t114 -294.5v-700h-449v606q0 54 -26 83.5t-70 29.5q-46 0 -77 -34t-31 -91v-594h-449zM141 1288q0 67 17 124t52.5 104t97.5 73.5t145 26.5q52 0 90.5 -12.5t59.5 -30t37.5 -35.5t35 -30.5t41.5 -12.5q70 0 65 107h320 q2 -18 2 -56q0 -69 -18.5 -129.5t-54.5 -110t-97.5 -78t-140.5 -28.5q-49 0 -88 13t-62.5 32t-43 37.5t-40.5 31.5t-45 13q-35 0 -44.5 -24t-6.5 -86h-318q-4 50 -4 71z"></glyph><glyph unicode="ò" d="M45 537q0 247 169.5 410t436.5 163q266 0 434 -162.5t168 -410.5q0 -247 -170.5 -404.5t-431.5 -157.5q-265 0 -435.5 158.5t-170.5 403.5zM276 1595h492l96 -368h-432zM471 541q0 -76 53 -128.5t127 -52.5q77 0 126.5 52t49.5 129t-49 129.5t-125 52.5 q-77 0 -129.5 -52.5t-52.5 -129.5z"></glyph><glyph unicode="ó" d="M45 537q0 247 169.5 410t436.5 163q266 0 434 -162.5t168 -410.5q0 -247 -170.5 -404.5t-431.5 -157.5q-265 0 -435.5 158.5t-170.5 403.5zM442 1225l95 368h491l-156 -368h-430zM471 541q0 -76 53 -128.5t127 -52.5q77 0 126.5 52t49.5 129t-49 129.5t-125 52.5 q-77 0 -129.5 -52.5t-52.5 -129.5z"></glyph><glyph unicode="ô" d="M45 537q0 247 169.5 410t436.5 163q266 0 434 -162.5t168 -410.5q0 -247 -170.5 -404.5t-431.5 -157.5q-265 0 -435.5 158.5t-170.5 403.5zM180 1221l258 383h418l254 -383h-383l-82 153l-82 -153h-383zM471 541q0 -76 53 -128.5t127 -52.5q77 0 126.5 52t49.5 129 t-49 129.5t-125 52.5q-77 0 -129.5 -52.5t-52.5 -129.5z"></glyph><glyph unicode="õ" d="M45 537q0 247 169.5 410t436.5 163q266 0 434 -162.5t168 -410.5q0 -247 -170.5 -404.5t-431.5 -157.5q-265 0 -435.5 158.5t-170.5 403.5zM190 1288q0 67 17 124t52.5 104t97.5 73.5t145 26.5q52 0 90.5 -12.5t59.5 -30t37.5 -35.5t35 -30.5t41.5 -12.5q70 0 65 107h320 q2 -18 2 -56q0 -69 -18.5 -129.5t-54.5 -110t-97.5 -78t-140.5 -28.5q-49 0 -88 13t-62.5 32t-43 37.5t-40.5 31.5t-45 13q-35 0 -44.5 -24t-6.5 -86h-317q-5 63 -5 71zM471 541q0 -76 53 -128.5t127 -52.5q77 0 126.5 52t49.5 129t-49 129.5t-125 52.5q-77 0 -129.5 -52.5 t-52.5 -129.5z"></glyph><glyph unicode="ö" d="M45 537q0 247 169.5 410t436.5 163q266 0 434 -162.5t168 -410.5q0 -247 -170.5 -404.5t-431.5 -157.5q-265 0 -435.5 158.5t-170.5 403.5zM168 1393q0 95 66 161t163 66t164.5 -66t67.5 -161q0 -98 -67.5 -166t-164.5 -68t-163 68t-66 166zM471 541q0 -76 53 -128.5 t127 -52.5q77 0 126.5 52t49.5 129t-49 129.5t-125 52.5q-77 0 -129.5 -52.5t-52.5 -129.5zM672 1393q0 95 67.5 161t165.5 66q96 0 163 -66t67 -161q0 -98 -67 -166t-163 -68q-98 0 -165.5 68t-67.5 166z"></glyph><glyph unicode="÷" d="M47 473v377h965v-377h-965zM307 217q0 93 62.5 155t158.5 62q94 0 157 -62.5t63 -154.5q0 -93 -63.5 -157t-156.5 -64q-96 0 -158.5 64t-62.5 157zM307 1108q0 92 62.5 153.5t158.5 61.5q94 0 157 -62t63 -153q0 -94 -63 -157.5t-157 -63.5q-96 0 -158.5 63.5 t-62.5 157.5z"></glyph><glyph unicode="ø" d="M45 537q0 249 171.5 411t438.5 162q148 0 277 -55l139 178l143 -98l-133 -174q88 -78 136.5 -187.5t48.5 -236.5q0 -246 -172 -404t-439 -158q-158 0 -290 60l-138 -178l-141 96l135 176q-176 159 -176 408zM442 539q0 -52 25 -97l233 301q-35 5 -43 5q-91 0 -153 -59.5 t-62 -149.5zM596 344q27 -8 61 -8q91 0 153 58t62 145q0 67 -34 116z"></glyph><glyph unicode="ù" d="M78 455v630h450v-612q0 -54 26 -82.5t69 -28.5q48 0 78 35t30 95v593h449v-1085h-428v78q-114 -103 -281 -103q-185 0 -289 123t-104 357zM256 1595h492l94 -368h-430z"></glyph><glyph unicode="ú" d="M78 455v630h450v-612q0 -54 26 -82.5t69 -28.5q48 0 78 35t30 95v593h449v-1085h-428v78q-114 -103 -281 -103q-185 0 -289 123t-104 357zM422 1225l92 368h492l-154 -368h-430z"></glyph><glyph unicode="û" d="M78 455v630h450v-612q0 -54 26 -82.5t69 -28.5q48 0 78 35t30 95v593h449v-1085h-428v78q-114 -103 -281 -103q-185 0 -289 123t-104 357zM160 1221l256 383h418l256 -383h-383l-82 153l-82 -153h-383z"></glyph><glyph unicode="ü" d="M78 455v630h450v-612q0 -54 26 -82.5t69 -28.5q48 0 78 35t30 95v593h449v-1085h-428v78q-114 -103 -281 -103q-185 0 -289 123t-104 357zM145 1393q0 95 67.5 161t164.5 66q96 0 163.5 -66t67.5 -161q0 -98 -67.5 -166t-163.5 -68q-97 0 -164.5 68t-67.5 166zM651 1393 q0 95 67.5 161t164.5 66t163 -66t66 -161q0 -98 -66 -166t-163 -68t-164.5 68t-67.5 166z"></glyph><glyph unicode="ý" d="M-18 1085h456l213 -634l180 634h457l-309 -942q-27 -82 -50 -141.5t-55.5 -126t-67 -112t-83 -90t-104.5 -70.5t-129.5 -42t-161.5 -16q-147 0 -291 60v383q128 -62 244 -62q112 0 157 29zM424 1227l94 368h492l-154 -368h-432z"></glyph><glyph unicode="þ" d="M88 -412v1866h440v-442q120 90 271 90q143 0 259.5 -73.5t182.5 -203t66 -288.5q0 -244 -146 -403t-366 -159q-155 0 -267 84v-471h-440zM514 535q0 -76 51.5 -128.5t126.5 -52.5t126.5 52.5t51.5 128.5q0 75 -50.5 127.5t-125.5 52.5q-76 0 -128 -51.5t-52 -128.5z"></glyph><glyph unicode="ÿ" d="M-18 1085h456l213 -634l180 634h457l-309 -942q-27 -82 -50 -141.5t-55.5 -126t-67 -112t-83 -90t-104.5 -70.5t-129.5 -42t-161.5 -16q-147 0 -291 60v383q128 -62 244 -62q112 0 157 29zM150 1395q0 94 66.5 160.5t164.5 66.5q95 0 162 -66.5t67 -160.5q0 -98 -67 -167 t-162 -69q-98 0 -164.5 68.5t-66.5 167.5zM653 1395q0 94 68.5 160.5t165.5 66.5q95 0 162 -66.5t67 -160.5q0 -98 -67 -167t-162 -69q-97 0 -165.5 69t-68.5 167z"></glyph><glyph unicode="Œ" d="M53 684q0 200 85.5 362.5t237.5 254.5t341 92q204 0 348 -103v80h975v-391h-541v-115h516v-354h-516v-119h563v-391h-997v80q-144 -103 -348 -103q-189 0 -341 91.5t-237.5 253.5t-85.5 362zM494 686q0 -120 82 -205.5t204 -85.5q112 0 192.5 73.5t92.5 182.5v72 q-12 107 -93.5 179.5t-195.5 72.5q-119 0 -200.5 -84.5t-81.5 -204.5z"></glyph><glyph unicode="œ" d="M47 535q0 246 162.5 410.5t406.5 164.5q223 0 369 -137q152 137 387 137q244 0 398.5 -147.5t154.5 -380.5q0 -58 -6 -125h-715q20 -142 164 -142q110 0 156 88l350 -137q-53 -140 -183.5 -215.5t-324.5 -75.5q-248 0 -385 129q-147 -129 -369 -129q-159 0 -288.5 73.5 t-203 202t-73.5 284.5zM463 539q0 -84 49.5 -137.5t126.5 -53.5q76 0 123 53.5t47 137.5q0 88 -47 142t-123 54q-77 0 -126.5 -55t-49.5 -141zM1212 670h293q-33 108 -147 108q-55 0 -93 -28.5t-53 -79.5z"></glyph><glyph unicode="Ÿ" d="M-23 1370h547l178 -485l187 485h547l-500 -999v-371h-471v371zM197 1724q0 102 70.5 172t172.5 70q103 0 173.5 -69.5t70.5 -172.5q0 -104 -70.5 -174.5t-173.5 -70.5q-102 0 -172.5 70.5t-70.5 174.5zM731 1724q0 102 70 172t172 70q103 0 172 -69.5t69 -172.5 q0 -104 -69 -174.5t-172 -70.5q-102 0 -172 70.5t-70 174.5z"></glyph><glyph unicode="ˆ" d="M35 1214l256 383h418l256 -383h-383l-82 154l-82 -154h-383z"></glyph><glyph unicode="˜" d="M55 1333q0 67 16.5 124t52 103t97 72.5t144.5 26.5q52 0 91 -12.5t60 -29.5t37.5 -34.5t35.5 -30t42 -12.5q70 0 65 107h318q4 -40 4 -60q0 -69 -19 -129t-55.5 -108.5t-97.5 -76.5t-139 -28q-49 0 -88 13t-63 31.5t-43.5 37.5t-40.5 32t-44 13q-35 0 -45 -24t-8 -88 h-316q-4 50 -4 73z"></glyph><glyph unicode=" "></glyph><glyph unicode=" "></glyph><glyph unicode=" "></glyph><glyph unicode=" "></glyph><glyph unicode=" "></glyph><glyph unicode=" "></glyph><glyph unicode=" "></glyph><glyph unicode=" "></glyph><glyph unicode=" "></glyph><glyph unicode=" "></glyph><glyph unicode=" "></glyph><glyph unicode="‐" d="M98 414v379h693v-379h-693z"></glyph><glyph unicode="‑" d="M98 414v379h693v-379h-693z"></glyph><glyph unicode="‒" d="M98 414v379h693v-379h-693z"></glyph><glyph unicode="–" d="M98 414v379h1127v-379h-1127z"></glyph><glyph unicode="—" d="M98 414v379h1909v-379h-1909z"></glyph><glyph unicode="‘" d="M29 817l262 621h356l-123 -621h-495z"></glyph><glyph unicode="’" d="M53 819l123 619h496l-264 -619h-355z"></glyph><glyph unicode="‚" d="M-2 -319l123 620h497l-264 -620h-356z"></glyph><glyph unicode="“" d="M29 817l262 621h354l-121 -621h-495zM610 817l264 621h355l-121 -621h-498z"></glyph><glyph unicode="”" d="M53 819l123 619h496l-264 -619h-355zM635 819l123 619h497l-264 -619h-356z"></glyph><glyph unicode="„" d="M-2 -319l123 620h497l-264 -620h-356zM582 -319l123 620h495l-262 -620h-356z"></glyph><glyph unicode="•" d="M94 674q0 163 113.5 277t277.5 114t278 -114t114 -277q0 -166 -114 -280.5t-278 -114.5t-277.5 114.5t-113.5 280.5z"></glyph><glyph unicode="…" d="M53 221q0 103 71.5 173.5t174.5 70.5q104 0 177 -70.5t73 -173.5q0 -104 -73 -176t-177 -72q-103 0 -174.5 72t-71.5 176zM618 221q0 103 72 173.5t176 70.5t176 -70.5t72 -173.5q0 -104 -72 -176t-176 -72t-176 72t-72 176zM1186 221q0 103 72 173.5t176 70.5 t175.5 -70.5t71.5 -173.5q0 -104 -71.5 -176t-175.5 -72t-176 72t-72 176z"></glyph><glyph unicode=" "></glyph><glyph unicode="‹" d="M45 512l221 457h492l-226 -457l209 -457h-491z"></glyph><glyph unicode="›" d="M43 969h492l223 -457l-205 -457h-494l209 457z"></glyph><glyph unicode=" "></glyph><glyph unicode="€" d="M53 471v164h135q-2 14 -2 45v41h-133v166h160q62 233 251 371.5t449 138.5q119 0 228 -28t170 -71v-368q-67 41 -164.5 66.5t-183.5 25.5q-96 0 -171 -36t-122 -99h456v-166h-520q-2 -14 -2 -45q0 -27 2 -41h520v-164h-452q101 -123 319 -123q79 0 180 16.5t168 41.5 v-365q-60 -29 -178 -49.5t-233 -20.5q-277 0 -465.5 136t-251.5 364h-160z"></glyph><glyph unicode="™" d="M55 1151v219h557v-219h-166v-393h-229v393h-162zM676 758v612h237l131 -254l140 254h229v-612h-211v237l-78 -123h-153l-78 129v-243h-217z"></glyph><glyph unicode="◼" d="M0 0v1085h1085v-1085h-1085z"></glyph></font>
</defs>
</svg>
